News

  • - ULTIME NEWS ESCLUSIVE -

    DOWNLOAD DISPONIBILI

    CLICCA SULLA COPERTINA PER VEDERE IL POST

    Resta aggiornato per ogni download con telegram clicca qui

Autore Topic: Radioactive (2019) [4K]  (Letto 178 volte)

0 Utenti e 1 Visitatore stanno visualizzando questo topic.

Ottobre 17, 2020, 05:43:16 pm
Letto 178 volte

TV-P2P

  • Releaser
  • Legend Member

  • Offline
  • *

  • 2227
  • Grazie ricevuti:
    402
  • Ringraziato: 31435 volte
  • Testo personale
    La televisione è un’arma di distrazione di massa.




Radioactive


Genere: Biografico, Avventura, Drammatico
Anno: 2019
Regia: Marjane Satrapi
Attori: Rosamund Pike, Sam Riley, Jonathan Aris, Anya Taylor-Joy, Aneurin Barnard, Simon Russell Beale, Corey Johnson, Tim Woodward, Demetri Goritsas, Mirjam Novak
Paese: Gran Bretagna, Ungheria
Durata: 103 min
Distribuzione: Eagle Pictures



Nel 1893, a Parigi, Marie incontra il collega scienziato Pierre Curie e se ne innamora. I due si sposano, hanno due figlie e insieme sono destinati a cambiare per sempre il volto della scienza vincendo il premio Nobel per la scoperta del radio. Dopo la morte dell'amato Pierre, Marie continuerà le sue ricerche ma darà scandalo per la sua relazione con un altro scienziato, Paul Langevin.


Spoiler: MostraHide



Spoiler: MostraHide

General
Unique ID : 197120740540571330190303737199609352235 (0x944C12DD21783A8206DE15676141902B)
Complete name : E:\Radioactive.2019\Radioactive.2020.iTA-ENG.WEBDL.2160p.HDR.x265-CYBER.mkv
Format : Matroska
Format version : Version 2
File size : 15.4 GiB
Duration : 1 h 49 min
Overall bit rate mode : Variable
Overall bit rate : 20.0 Mb/s
Movie name : *CYBER*
Encoded date : UTC 2020-10-14 19:20:29
Writing application : mkvmerge v45.0.0 ('Heaven in Pennies') 64-bit
Writing library : libebml v1.3.10 + libmatroska v1.5.2

Video
ID : 1
Format : HEVC
Format/Info : High Efficiency Video Coding
Format profile : Main 10@L5@Main
HDR format : SMPTE ST 2094 App 4, Version 0
Codec ID : V_MPEGH/ISO/HEVC
Duration : 1 h 49 min
Bit rate : 14.6 Mb/s
Width : 3 840 pixels
Height : 1 600 pixels
Display aspect ratio : 2.40:1
Frame rate mode : Constant
Frame rate : 24.000 FPS
Original frame rate : 23.976 (24000/1001) FPS
Standard : NTSC
Color space : YUV
Chroma subsampling : 4:2:0 (Type 2)
Bit depth : 10 bits
Bits/(Pixel*Frame) : 0.099
Stream size : 11.2 GiB (73%)
Language : English
Default : Yes
Forced : No
Color range : Limited
Color primaries : BT.2020
Transfer characteristics : PQ
Matrix coefficients : BT.2020 non-constant
Mastering display color primaries : Display P3
Mastering display luminance : min: 0.0001 cd/m2, max: 1000 cd/m2
Maximum Content Light Level : 966 cd/m2
Maximum Frame-Average Light Level : 383 cd/m2

Audio #1
ID : 2
Format : DTS XLL
Format/Info : Digital Theater Systems
Commercial name : DTS-HD Master Audio
Codec ID : A_DTS
Duration : 1 h 49 min
Bit rate mode : Variable
Bit rate : 4 173 kb/s
Channel(s) : 6 channels
Channel layout : C L R Ls Rs LFE
Sampling rate : 48.0 kHz
Frame rate : 93.750 FPS (512 SPF)
Bit depth : 24 bits
Compression mode : Lossless
Stream size : 3.21 GiB (21%)
Title : DTS-HD MA
Language : Italian
Default : Yes
Forced : No

Audio #2
ID : 3
Format : AC-3
Format/Info : Audio Coding 3
Commercial name : Dolby Digital
Codec ID : A_AC3
Duration : 1 h 49 min
Bit rate mode : Constant
Bit rate : 640 kb/s
Channel(s) : 6 channels
Channel layout : L R C LFE Ls Rs
Sampling rate : 48.0 kHz
Frame rate : 31.250 FPS (1536 SPF)
Compression mode : Lossy
Stream size : 503 MiB (3%)
Language : Italian
Service kind : Complete Main
Default : No
Forced : No

Audio #3
ID : 4
Format : AC-3
Format/Info : Audio Coding 3
Commercial name : Dolby Digital
Codec ID : A_AC3
Duration : 1 h 49 min
Bit rate mode : Constant
Bit rate : 640 kb/s
Channel(s) : 6 channels
Channel layout : L R C LFE Ls Rs
Sampling rate : 48.0 kHz
Frame rate : 31.250 FPS (1536 SPF)
Compression mode : Lossy
Stream size : 503 MiB (3%)
Language : English
Service kind : Complete Main
Default : No
Forced : No

Text #1
ID : 5
Format : UTF-8
Codec ID : S_TEXT/UTF8
Codec ID/Info : UTF-8 Plain Text
Duration : 1 h 39 min
Bit rate : 50 b/s
Count of elements : 1045
Stream size : 36.7 KiB (0%)
Title : REGOLARI
Language : Italian
Default : No
Forced : No

Text #2
ID : 6
Format : UTF-8
Codec ID : S_TEXT/UTF8
Codec ID/Info : UTF-8 Plain Text
Duration : 1 h 40 min
Bit rate : 57 b/s
Count of elements : 1245
Stream size : 42.2 KiB (0%)
Title : NON UDENTI
Language : English
Default : No
Forced : No



Contenuto nascosto:
  • Per effettuare il download devi essere registrato
    Se lo sei già, accedi e clicca sul tasto Ringrazia in alto a destra del post



CYBER
Se apprezzi le mie release clicca il tasto sotto il mio avatar
 
Utenti che hanno ringraziato per il post: baretta14, henri, Giuseppe58, reny2112, Jag80blu, Sync, Panfilo, anderson, marcof10, Ako9