News

  • - ULTIME NEWS ESCLUSIVE -

    DOWNLOAD DISPONIBILI

    CLICCA SULLA COPERTINA PER VEDERE IL POST

    Resta aggiornato per ogni download con telegram clicca qui

Autore Topic: The Haunting Of Bly Manor - Stagione 2 (2020) - COMPLETA [HD]  (Letto 937 volte)

0 Utenti e 1 Visitatore stanno visualizzando questo topic.

Ottobre 09, 2020, 02:31:40 pm
Letto 937 volte

TV-P2P

  • Releaser
  • Legend Member

  • Offline
  • *

  • 2227
  • Grazie ricevuti:
    402
  • Ringraziato: 31433 volte
  • Testo personale
    La televisione è un’arma di distrazione di massa.



Paese Stati Uniti d'America
Anno 2019 – in produzione
Formato serie TV
Genere drama, soprannaturale, horror
Stagioni 2
Episodi 19
Lingua originale inglese



La serie vede protagonista una giovane governante che si trasferisce in una grande villa nella campagna inglese per occuparsi di due bambini rimasti orfani. Dani Clayton (Victoria Pedretti) è una ragazza solare che è intenzionata a voltare pagina e lasciarsi alle spalle un passato doloroso. Henry Wingrave (Henry Thomas), un uomo facoltoso, ha assunto la ragazza per occuparsi dei suoi nipotini Miles e Flora Wingrave. Fanno parte del cast anche Oliver Jackson-Cohen, Kate Siegel e tra le new entry anche Rebecca Jessel, che sarà la precedente governante di Bly Manor.


Spoiler: MostraHide



Spoiler: MostraHide
General
Unique ID : 203327506302215797417268019472282222414 (0x98F7740AD8AA7553E559DDD86748FF4E)
Complete name : C:\Users\Administrator\Videos\The Haunting Of Bly Manor S01\Ep 01-09 1080p\The.Haunting.S02E01.The.Great.Good.Place.1080p.NF.WEBRip.ITA.ENG.DDP5.1.x264-BlackBit.mkv
Format : Matroska
Format version : Version 4
File size : 1.80 GiB
Duration : 54 min 10 s
Overall bit rate mode : Variable
Overall bit rate : 4 758 kb/s
Encoded date : UTC 2020-10-09 10:04:50
Writing application : mkvmerge v50.0.0 ('Awakenings') 64-bit
Writing library : libebml v1.4.0 + libmatroska v1.6.2

Video
ID : 1
Format : AVC
Format/Info : Advanced Video Codec
Format profile : Main@L4
Format settings : CABAC / 3 Ref Frames
Format settings, CABAC : Yes
Format settings, Reference : 3 frames
Codec ID : V_MPEG4/ISO/AVC
Duration : 54 min 10 s
Bit rate mode : Variable
Bit rate : 3 480 kb/s
Maximum bit rate : 5 220 kb/s
Width : 1 920 pixels
Height : 1 080 pixels
Display aspect ratio : 16:9
Frame rate mode : Constant
Frame rate : 24.000 FPS
Color space : YUV
Chroma subsampling : 4:2:0
Bit depth : 8 bits
Scan type : Progressive
Bits/(Pixel*Frame) : 0.070
Stream size : 1.27 GiB (70%)
Writing library : x264 core 148 r2722 1b0121b
Encoding settings : cabac=1 / ref=3 / deblock=1:0:0 / analyse=0x1:0x111 / me=umh / subme=10 / psy=1 / psy_rd=1.00:0.00 / mixed_ref=1 / me_range=24 / chroma_me=1 / trellis=2 / 8x8dct=0 / cqm=0 / deadzone=21,11 / fast_pskip=1 / chroma_qp_offset=-2 / threads=8 / lookahead_threads=1 / sliced_threads=0 / nr=0 / decimate=1 / interlaced=0 / bluray_compat=0 / stitchable=1 / constrained_intra=0 / bframes=2 / b_pyramid=0 / b_adapt=2 / b_bias=0 / direct=3 / weightb=1 / open_gop=0 / weightp=2 / keyint=250 / keyint_min=24 / scenecut=0 / intra_refresh=0 / rc_lookahead=48 / rc=2pass / mbtree=1 / bitrate=3480 / ratetol=1.0 / qcomp=0.50 / qpmin=6 / qpmax=51 / qpstep=4 / cplxblur=20.0 / qblur=0.5 / vbv_maxrate=5220 / vbv_bufsize=6960 / nal_hrd=vbr / filler=0 / ip_ratio=1.40 / aq=1:1.00
Default : Yes
Forced : Yes

Audio #1
ID : 2
Format : E-AC-3
Format/Info : Enhanced AC-3
Commercial name : Dolby Digital Plus
Codec ID : A_EAC3
Duration : 54 min 10 s
Bit rate mode : Constant
Bit rate : 640 kb/s
Channel(s) : 6 channels
Channel layout : L R C LFE Ls Rs
Sampling rate : 48.0 kHz
Frame rate : 31.250 FPS (1536 SPF)
Compression mode : Lossy
Stream size : 248 MiB (13%)
Language : Italian
Service kind : Complete Main
Default : Yes
Forced : Yes

Audio #2
ID : 3
Format : E-AC-3 JOC
Format/Info : Enhanced AC-3 with Joint Object Coding
Commercial name : Dolby Digital Plus with Dolby Atmos
Codec ID : A_EAC3
Duration : 54 min 10 s
Bit rate mode : Constant
Bit rate : 768 kb/s
Channel(s) : 6 channels
Channel layout : L R C LFE Ls Rs
Sampling rate : 48.0 kHz
Frame rate : 31.250 FPS (1536 SPF)
Compression mode : Lossy
Stream size : 298 MiB (16%)
Language : English
Service kind : Complete Main
Default : No
Forced : No
Complexity index : 16
Number of dynamic objects : 15
Bed channel count : 1 channel
Bed channel configuration : LFE

Text #1
ID : 4
Format : UTF-8
Codec ID : S_TEXT/UTF8
Codec ID/Info : UTF-8 Plain Text
Duration : 52 min 31 s
Bit rate : 0 b/s
Count of elements : 8
Stream size : 208 Bytes (0%)
Language : Italian
Default : Yes
Forced : Yes

Text #2
ID : 5
Format : UTF-8
Codec ID : S_TEXT/UTF8
Codec ID/Info : UTF-8 Plain Text
Duration : 52 min 31 s
Bit rate : 53 b/s
Count of elements : 728
Stream size : 20.5 KiB (0%)
Language : Italian
Default : No
Forced : No

Text #3
ID : 6
Format : UTF-8
Codec ID : S_TEXT/UTF8
Codec ID/Info : UTF-8 Plain Text
Duration : 51 min 22 s
Bit rate : 69 b/s
Count of elements : 911
Stream size : 26.2 KiB (0%)
Title : SDH
Language : English
Default : No
Forced : No




Contenuto nascosto:
  • Per effettuare il download devi essere registrato
    Se lo sei già, accedi e clicca sul tasto Ringrazia in alto a destra del post


CREDITI BlackBit