News

  • - ULTIME NEWS ESCLUSIVE -

    DOWNLOAD DISPONIBILI

    CLICCA SULLA COPERTINA PER VEDERE IL POST

    Resta aggiornato per ogni download con telegram clicca qui

Autore Topic: Il Mio Nome È Impavido (2020) [1080P]  (Letto 317 volte)

0 Utenti e 1 Visitatore stanno visualizzando questo topic.

Settembre 14, 2020, 11:37:49 pm
Letto 317 volte

TV-P2P

  • Releaser
  • Legend Member

  • Offline
  • *

  • 1769
  • Grazie ricevuti:
    312
  • Ringraziato: 23607 volte
  • Testo personale
    La televisione è un’arma di distrazione di massa.


Il Mio Nome È Impavido




Titolo originale Fearless
Data di uscita 14 Agosto 2020 (Italia, Streaming)
Genere Animazione , Avventura , Ragazzi
Anno 2020
Regia Cory Edwards
Attori Gabrielle Union, Yara Shahidi, Miles Robbins, Dwyane Wade, Cory Edwards, Joseph Antonio Cartagena, Miguel, Angie Martinez, Amari McCoy, Jadakiss, Leyon Azubuike
Paese Canada
Durata 89 Min
Distribuzione Netflix



La trama di Il mio nome è Impavido (2020). Un teenager appassionato di video games è costretto a trasformarsi in babysitter quando tre bambini con superpoteri compaiono improvvisamente dal suo video game preferito.


Spoiler: MostraHide



Spoiler: MostraHide
Complete name               : Il.Mio.Nome.E.Impavido.2020.iTA.ENG.1080p.DDP5.1.WEB.x264-DENiED.mkv
Format                      : Matroska
Format version              : Version 4
File size                   : 3.21 GiB
Duration                    : 1 h 31 min
Overall bit rate mode       : Variable
Overall bit rate            : 5 003 kb/s
Movie name                  : Il.Mio.Nome.E.Impavido.2020.iTA.ENG.1080p.DDP5.1.WEB.x264-DENiED
Encoded date                : UTC 2020-08-29 20:20:55
Writing application         : mkvmerge v49.0.0 ('Sick Of Losing Soulmates') 64-bit
Writing library             : libebml v1.4.0 + libmatroska v1.6.1

Video
ID                          : 1
Format                      : AVC
Format/Info                 : Advanced Video Codec
Format profile              : Main@L4
Format settings             : CABAC / 3 Ref Frames
Format settings, CABAC      : Yes
Format settings, Reference  : 3 frames
Codec ID                    : V_MPEG4/ISO/AVC
Duration                    : 1 h 31 min
Bit rate mode               : Variable
Bit rate                    : 3 721 kb/s
Nominal bit rate            : 4 020 kb/s
Maximum bit rate            : 6 030 kb/s
Width                       : 1 920 pixels
Height                      : 1 080 pixels
Display aspect ratio        : 16:9
Frame rate mode             : Constant
Frame rate                  : 24.000 FPS
Color space                 : YUV
Chroma subsampling          : 4:2:0
Bit depth                   : 8 bits
Scan type                   : Progressive
Bits/(Pixel*Frame)          : 0.075
Stream size                 : 2.39 GiB (74%)
Title                       : 1080p.WEB.x264-DENiED
Writing library             : x264 core 148 r2722 1b0121b
Encoding settings           : cabac=1 / ref=3 / deblock=1:0:0 / analyse=0x1:0x111 / me=umh / subme=10 / psy=1 / psy_rd=1.00:0.00 / mixed_ref=1 / me_range=24 / chroma_me=1 / trellis=2 / 8x8dct=0 / cqm=0 / deadzone=21,11 / fast_pskip=1 / chroma_qp_offset=-2 / threads=8 / lookahead_threads=1 / sliced_threads=0 / nr=0 / decimate=1 / interlaced=0 / bluray_compat=0 / stitchable=1 / constrained_intra=0 / bframes=2 / b_pyramid=0 / b_adapt=2 / b_bias=0 / direct=3 / weightb=1 / open_gop=0 / weightp=2 / keyint=250 / keyint_min=24 / scenecut=0 / intra_refresh=0 / rc_lookahead=48 / rc=2pass / mbtree=1 / bitrate=4020 / ratetol=1.0 / qcomp=0.50 / qpmin=6 / qpmax=51 / qpstep=4 / cplxblur=20.0 / qblur=0.5 / vbv_maxrate=6030 / vbv_bufsize=8040 / nal_hrd=vbr / filler=0 / ip_ratio=1.40 / aq=1:1.00
Default                     : Yes
Forced                      : No

Audio #1
ID                          : 2
Format                      : E-AC-3
Format/Info                 : Enhanced AC-3
Commercial name             : Dolby Digital Plus
Codec ID                    : A_EAC3
Duration                    : 1 h 31 min
Bit rate mode               : Constant
Bit rate                    : 640 kb/s
Channel(s)                  : 6 channels
Channel layout              : L R C LFE Ls Rs
Sampling rate               : 48.0 kHz
Frame rate                  : 31.250 FPS (1536 SPF)
Compression mode            : Lossy
Stream size                 : 421 MiB (13%)
Title                       : DDP5.1@640
Language                    : Italian
Service kind                : Complete Main
Default                     : Yes
Forced                      : Yes

Audio #2
ID                          : 3
Format                      : E-AC-3
Format/Info                 : Enhanced AC-3
Commercial name             : Dolby Digital Plus
Codec ID                    : A_EAC3
Duration                    : 1 h 31 min
Bit rate mode               : Constant
Bit rate                    : 640 kb/s
Channel(s)                  : 6 channels
Channel layout              : L R C LFE Ls Rs
Sampling rate               : 48.0 kHz
Frame rate                  : 31.250 FPS (1536 SPF)
Compression mode            : Lossy
Stream size                 : 421 MiB (13%)
Title                       : DDP5.1@640
Language                    : English
Service kind                : Complete Main
Default                     : No
Forced                      : No

Text #1
ID                          : 4
Format                      : UTF-8
Codec ID                    : S_TEXT/UTF8
Codec ID/Info               : UTF-8 Plain Text
Duration                    : 1 h 28 min
Bit rate                    : 0 b/s
Count of elements           : 17
Stream size                 : 334 Bytes (0%)
Title                       : FORCED
Language                    : Italian
Default                     : Yes
Forced                      : Yes

Text #2
ID                          : 5
Format                      : UTF-8
Codec ID                    : S_TEXT/UTF8
Codec ID/Info               : UTF-8 Plain Text
Duration                    : 1 h 28 min
Bit rate                    : 52 b/s
Count of elements           : 1043
Stream size                 : 34.2 KiB (0%)
Title                       : REGULAR
Language                    : Italian
Default                     : No
Forced                      : No

Text #3
ID                          : 6
Format                      : UTF-8
Codec ID                    : S_TEXT/UTF8
Codec ID/Info               : UTF-8 Plain Text
Duration                    : 1 h 28 min
Bit rate                    : 77 b/s
Count of elements           : 1646
Stream size                 : 50.6 KiB (0%)
Title                       : REGULAR
Language                    : English
Default                     : No
Forced                      : No




Contenuto nascosto:
  • Per effettuare il download devi essere registrato
    Se lo sei già, accedi e clicca sul tasto Ringrazia in alto a destra del post


CREDITI DENiED
Se apprezzi le mie release clicca il tasto sotto il mio avatar