News

  • - ULTIME NEWS ESCLUSIVE -

    DOWNLOAD DISPONIBILI

    CLICCA SULLA COPERTINA PER VEDERE IL POST

    Resta aggiornato per ogni download con telegram clicca qui

Autore Topic: La Casa Del Terrore (2019) [1080P]  (Letto 722 volte)

0 Utenti e 1 Visitatore stanno visualizzando questo topic.

Settembre 09, 2020, 05:41:42 pm
Letto 722 volte

TiME

  • Founder & Admin
  • Legend Member

  • Offline
  • *
  • Founder of oDySSey Crew

  • 2347
  • Grazie ricevuti:
    1355
  • Ringraziato: 77766 volte
  • Testo personale
    - Questione Di Tempo -

...::: INFO :::...
Titolo originale Haunt
Genere Horror , Thriller
Anno 2019
Regia Scott Beck, Bryan Woods
Attori Will Brittain, Katie Stevens, Lauryn Alisa McClain, Andrew Caldwell, Shazi Raja, Schuyler Helford, Phillip Johnson Richardson, Justin Marxen, Terri Partyka, Damian Maffei, Brent Geisler, Karli Hall, Schuyler White, Samuel Hunt
Paese USA
Durata 92 Min
Distribuzione Notorious Pictures

...::: TRAMA :::...
La trama di La Casa del Terrore (2019). Ad Halloween un gruppo di amici decide di recarsi in una casa stregata che promette di alimentarsi delle loro più oscure paure. La notte si trasformerà in un incubo quando gli amici capiranno che alcuni di quegli incubi sono reali.

...::: SCREENSHOT :::...


...::: REPORT :::...
La.Casa.Del.Terrore.2019.iTA.AC3.ENG.DTS.Bluray.1080p.x264-ODS
Spoiler: MostraHide
Format                      : Matroska
Format version              : Version 4
File size                   : 8.05 GiB
Duration                    : 1 h 32 min
Overall bit rate            : 12.5 Mb/s
Encoded date                : UTC 2020-09-09 01:28:55
Writing application         : mkvmerge v49.0.0 ('Sick Of Losing Soulmates') 64-bit
Writing library             : libebml v1.4.0 + libmatroska v1.6.1

Video
ID                          : 1
Format                      : AVC
Format/Info                 : Advanced Video Codec
Format profile              : High@L4.1
Format settings             : CABAC / 5 Ref Frames
Format settings, CABAC      : Yes
Format settings, Reference  : 5 frames
Codec ID                    : V_MPEG4/ISO/AVC
Duration                    : 1 h 32 min
Bit rate                    : 10.4 Mb/s
Width                       : 1 920 pixels
Height                      : 800 pixels
Display aspect ratio        : 2.40:1
Frame rate mode             : Constant
Frame rate                  : 24.000 FPS
Color space                 : YUV
Chroma subsampling          : 4:2:0
Bit depth                   : 8 bits
Scan type                   : Progressive
Bits/(Pixel*Frame)          : 0.281
Stream size                 : 6.67 GiB (83%)
Writing library             : x264 core 158 r2988 7817004
Encoding settings           : cabac=1 / ref=5 / deblock=1:-2:-2 / analyse=0x3:0x113 / me=umh / subme=8 / psy=1 / psy_rd=1.00:0.00 / mixed_ref=1 / me_range=16 / chroma_me=1 / trellis=2 / 8x8dct=1 / cqm=0 / deadzone=21,11 / fast_pskip=0 / chroma_qp_offset=-2 / threads=25 / lookahead_threads=4 / sliced_threads=0 / nr=0 / decimate=1 / interlaced=0 / bluray_compat=0 / constrained_intra=0 / bframes=3 / b_pyramid=2 / b_adapt=2 / b_bias=0 / direct=3 / weightb=1 / open_gop=0 / weightp=2 / keyint=240 / keyint_min=24 / scenecut=40 / intra_refresh=0 / rc_lookahead=50 / rc=2pass / mbtree=1 / bitrate=10370 / ratetol=1.0 / qcomp=0.60 / qpmin=0 / qpmax=69 / qpstep=4 / cplxblur=20.0 / qblur=0.5 / ip_ratio=1.40 / aq=1:1.00
Language                    : English
Default                     : Yes
Forced                      : No

Audio #1
ID                          : 2
Format                      : AC-3
Format/Info                 : Audio Coding 3
Commercial name             : Dolby Digital
Codec ID                    : A_AC3
Duration                    : 1 h 32 min
Bit rate mode               : Constant
Bit rate                    : 640 kb/s
Channel(s)                  : 6 channels
Channel layout              : L R C LFE Ls Rs
Sampling rate               : 48.0 kHz
Frame rate                  : 31.250 FPS (1536 SPF)
Compression mode            : Lossy
Delay relative to video     : 28 ms
Stream size                 : 422 MiB (5%)
Title                       : [ITA]
Language                    : Italian
Service kind                : Complete Main
Default                     : Yes
Forced                      : Yes

Audio #2
ID                          : 3
Format                      : DTS
Format/Info                 : Digital Theater Systems
Codec ID                    : A_DTS
Duration                    : 1 h 32 min
Bit rate mode               : Constant
Bit rate                    : 1 509 kb/s
Channel(s)                  : 6 channels
Channel layout              : C L R Ls Rs LFE
Sampling rate               : 48.0 kHz
Frame rate                  : 93.750 FPS (512 SPF)
Bit depth                   : 24 bits
Compression mode            : Lossy
Stream size                 : 995 MiB (12%)
Language                    : English
Default                     : No
Forced                      : No

Text
ID                          : 4
Format                      : UTF-8
Codec ID                    : S_TEXT/UTF8
Codec ID/Info               : UTF-8 Plain Text
Duration                    : 1 h 25 min
Bit rate                    : 35 b/s
Count of elements           : 840
Stream size                 : 22.5 KiB (0%)
Title                       : eng
Default                     : No
Forced                      : No

Menu
00:00:00.000                : en:00:00:00.000
00:08:05.750                : en:00:08:05.750
00:16:49.333                : en:00:16:49.333
00:25:24.417                : en:00:25:24.417
00:33:27.417                : en:00:33:27.417
00:43:05.917                : en:00:43:05.917
00:50:57.292                : en:00:50:57.292
00:58:12.417                : en:00:58:12.417
01:06:10.000                : en:01:06:10.000
01:12:57.458                : en:01:12:57.458
01:19:09.958                : en:01:19:09.958
01:26:18.250                : en:01:26:18.250


...::: DOWNLOAD :::...
se vuoi replicare e/o esportare una mia release puoi farlo inserendo nei ringraziamenti il nome: oDySSey - ODS


Contenuto nascosto:
  • Per effettuare il download devi essere registrato
    Se lo sei già, accedi e clicca sul tasto Ringrazia in alto a destra del post

« Ultima modifica: Settembre 09, 2020, 10:16:13 pm da TiME »
NO supporto tramite PM
Se apprezzi le mie release clicca il tasto sotto il mio avatar
RESTA AGGIORNATO PER OGNI NUOVO DOWNLOAD NEL CANALE TELEGRAM
Clicca Qua

 

Settembre 09, 2020, 10:16:32 pm
Risposta #1

TiME

  • Founder & Admin
  • Legend Member

  • Offline
  • *
  • Founder of oDySSey Crew

  • 2347
  • Grazie ricevuti:
    1355
  • Ringraziato: 77766 volte
  • Testo personale
    - Questione Di Tempo -
NO supporto tramite PM
Se apprezzi le mie release clicca il tasto sotto il mio avatar
RESTA AGGIORNATO PER OGNI NUOVO DOWNLOAD NEL CANALE TELEGRAM
Clicca Qua