News

  • - ULTIME NEWS ESCLUSIVE -

    DOWNLOAD DISPONIBILI

    CLICCA SULLA COPERTINA PER VEDERE IL POST

    Resta aggiornato per ogni download con telegram clicca qui
    Vota i nostri sondaggi clicca qua

Autore Topic: Shakespeare And Hathaway - Stagione 2 (2020) - IN CORSO  (Letto 279 volte)

0 Utenti e 1 Visitatore stanno visualizzando questo topic.

Luglio 14, 2020, 12:55:04 pm
Letto 279 volte

TV-P2P

  • Releaser
  • Legend Member

  • Offline
  • *

  • 1355
  • Grazie ricevuti:
    232
  • Ringraziato: 16847 volte
  • Testo personale
    La televisione è un’arma di distrazione di massa.


Shakespeare And Hathaway - Stagione 2




Titolo originale Shakespeare & Hathaway: Private Investigators
Paese Regno Unito
Anno 2018 – in produzione
Formato serie TV
Genere commedia drammatica, giallo
Stagioni 2
Episodi 20
Durata 45 min (episodio)
Lingua originale inglese
Rapporto 2:1



L'ex ispettore Frank Hathaway, ora un investigatore privato pieno di debiti, incontra Luella Shakespeare quando lo assume per indagare sul fidanzato che ha incontrato online. Hathaway e il suo assistente, Sebastian Brudenell, scoprono che il suo fidanzato è un truffatore e lo riferisce a Luella, ma lei si fida del suo fidanzato e le nozze vanno avanti. Quando il suo nuovo marito viene ucciso alla reception, Luella viene sospettata di omicidio dall'ispettore della polizia locale Christina Marlowe che era la ex fidanzata di Frank. Luella indaga insieme a Frank e Sebastian per svelare il mistero di ciò che è accaduto e, dopo che il suo nome è stato cancellato, usa i risparmi recuperati per pagare Frank. L'unico collega di Frank è Sebastian Brudenell aspirante poliziotto che usa le sue abilità quando sono richieste indagini sotto copertura. Vive sopra la costumista teatrale Gloria Fonteyn.


Spoiler: MostraHide



Spoiler: MostraHide

General
Unique ID : 276653483991791107633610285248161283739 (0xD02185DD076B011F69DCC3DB66747E9B)
Complete name : C:\Users\Administrator\Videos\Shakespeare And Hathaway S02\Shakespeare.And.Hathaway.Private.Investigators.S02E01.Outrageous.Fortune.BDMux.ITA.ENG.x264-BlackBit.mkv
Format : Matroska
Format version : Version 4
File size : 385 MiB
Duration : 43 min 56 s
Overall bit rate : 1 226 kb/s
Encoded date : UTC 2020-07-12 17:31:46
Writing application : mkvmerge v46.0.0 ('No Deeper Escape') 64-bit
Writing library : libebml v1.3.10 + libmatroska v1.5.2

Video
ID : 1
Format : AVC
Format/Info : Advanced Video Codec
Format profile : High@L3.1
Format settings : CABAC / 5 Ref Frames
Format settings, CABAC : Yes
Format settings, Reference : 5 frames
Codec ID : V_MPEG4/ISO/AVC
Duration : 43 min 56 s
Bit rate : 904 kb/s
Width : 720 pixels
Height : 404 pixels
Display aspect ratio : 16:9
Frame rate mode : Constant
Frame rate : 25.000 FPS
Color space : YUV
Chroma subsampling : 4:2:0
Bit depth : 8 bits
Scan type : Progressive
Bits/(Pixel*Frame) : 0.124
Stream size : 284 MiB (74%)
Writing library : x264 core 157 r2970 5493be8
Encoding settings : cabac=1 / ref=5 / deblock=1:-2:-2 / analyse=0x3:0x113 / me=umh / subme=8 / psy=1 / psy_rd=1.00:0.00 / mixed_ref=1 / me_range=16 / chroma_me=1 / trellis=2 / 8x8dct=1 / cqm=0 / deadzone=21,11 / fast_pskip=1 / chroma_qp_offset=-2 / threads=13 / lookahead_threads=2 / sliced_threads=0 / nr=0 / decimate=1 / interlaced=0 / bluray_compat=0 / constrained_intra=0 / bframes=3 / b_pyramid=2 / b_adapt=1 / b_bias=0 / direct=3 / weightb=1 / open_gop=0 / weightp=2 / keyint=250 / keyint_min=25 / scenecut=40 / intra_refresh=0 / rc_lookahead=50 / rc=crf / mbtree=1 / crf=19.0 / qcomp=0.60 / qpmin=0 / qpmax=69 / qpstep=4 / ip_ratio=1.40 / aq=1:0.70
Default : Yes
Forced : Yes
Color range : Limited
Matrix coefficients : BT.709

Audio #1
ID : 2
Format : AC-3
Format/Info : Audio Coding 3
Commercial name : Dolby Digital
Codec ID : A_AC3
Duration : 43 min 56 s
Bit rate mode : Constant
Bit rate : 192 kb/s
Channel(s) : 2 channels
Channel layout : L R
Sampling rate : 48.0 kHz
Frame rate : 31.250 FPS (1536 SPF)
Compression mode : Lossy
Stream size : 60.3 MiB (16%)
Language : Italian
Service kind : Complete Main
Default : Yes
Forced : Yes

Audio #2
ID : 3
Format : AAC LC
Format/Info : Advanced Audio Codec Low Complexity
Codec ID : A_AAC-2
Duration : 43 min 56 s
Bit rate : 127 kb/s
Channel(s) : 2 channels
Channel layout : L R
Sampling rate : 48.0 kHz
Frame rate : 46.875 FPS (1024 SPF)
Compression mode : Lossy
Delay relative to video : 9 ms
Stream size : 39.8 MiB (10%)
Language : English
Default : No
Forced : No

Text #1
ID : 4
Format : UTF-8
Codec ID : S_TEXT/UTF8
Codec ID/Info : UTF-8 Plain Text
Duration : 34 min 31 s
Bit rate : 3 b/s
Count of elements : 28
Stream size : 890 Bytes (0%)
Language : Italian
Default : Yes
Forced : Yes

Text #2
ID : 5
Format : UTF-8
Codec ID : S_TEXT/UTF8
Codec ID/Info : UTF-8 Plain Text
Duration : 42 min 31 s
Bit rate : 84 b/s
Count of elements : 768
Stream size : 26.4 KiB (0%)
Language : Italian
Default : No
Forced : No

Menu
00:00:00.000 : en:Chapter 01
00:09:56.360 : en:Chapter 02
00:21:07.920 : en:Chapter 03
00:34:20.040 : en:Chapter 04




Contenuto nascosto:
  • Per effettuare il download devi essere registrato
    Se lo sei già, accedi e clicca sul tasto Ringrazia in alto a destra del post


CREDITI BlackBit
« Ultima modifica: Agosto 06, 2020, 07:16:20 pm da TV-P2P »
Se apprezzi le mie release clicca il tasto sotto il mio avatar
 
Utenti che hanno ringraziato per il post: Gates, Leprechaun, DATA70, Catoclepa, fansp2p, cotenna, scanuto, Emilio1966, Gherardo, berserk90, tappi, caramor

Luglio 29, 2020, 10:33:49 pm
Risposta #1

TV-P2P

  • Releaser
  • Legend Member

  • Offline
  • *

  • 1355
  • Grazie ricevuti:
    232
  • Ringraziato: 16847 volte
  • Testo personale
    La televisione è un’arma di distrazione di massa.
Se apprezzi le mie release clicca il tasto sotto il mio avatar
 
Utenti che hanno ringraziato per il post: DATA70

Agosto 01, 2020, 01:53:10 pm
Risposta #2

Gherardo

Salve, ho un problema sul primo link:  "Invalid piece length in meta-file:-\
 
Utenti che hanno ringraziato per il post: DATA70

Agosto 01, 2020, 02:51:24 pm
Risposta #3

TV-P2P

  • Releaser
  • Legend Member

  • Offline
  • *

  • 1355
  • Grazie ricevuti:
    232
  • Ringraziato: 16847 volte
  • Testo personale
    La televisione è un’arma di distrazione di massa.
Appena provato lo apre senza problemi
Se apprezzi le mie release clicca il tasto sotto il mio avatar
 
Utenti che hanno ringraziato per il post: DATA70

Agosto 01, 2020, 08:39:52 pm
Risposta #4

Gherardo

Ciao "TV-P2P",
grazie per la risposta velocissima; ho provato a ricostruire i metadati filtrando alcuni peer, pensando che qualcuno avesse una versione rovinata, ma ogni volta ho lo stesso risultato, ovvero l'errore sulla lunghezza di cui ti parlavo.
Proverò a scaricare la versione HD.
 
Utenti che hanno ringraziato per il post: DATA70

Agosto 06, 2020, 07:16:41 pm
Risposta #5

TV-P2P

  • Releaser
  • Legend Member

  • Offline
  • *

  • 1355
  • Grazie ricevuti:
    232
  • Ringraziato: 16847 volte
  • Testo personale
    La televisione è un’arma di distrazione di massa.
Se apprezzi le mie release clicca il tasto sotto il mio avatar
 
Utenti che hanno ringraziato per il post: DATA70, Gherardo