News

  • - ULTIME NEWS ESCLUSIVE -

    DOWNLOAD DISPONIBILI

    CLICCA SULLA COPERTINA PER VEDERE IL POST

    Resta aggiornato per ogni download con telegram clicca qui
    Vota i nostri sondaggi clicca qua

Autore Topic: Passpartù: Operazione Doppiozero (2019) [1080P]  (Letto 1270 volte)

0 Utenti e 1 Visitatore stanno visualizzando questo topic.

Giugno 20, 2020, 08:03:22 pm
Letto 1270 volte

TiME

  • Founder & Admin
  • Legend Member

  • Online
  • *
  • Founder of oDySSey Crew

  • 1854
  • Grazie ricevuti:
    920
  • Ringraziato: 42548 volte
  • Testo personale
    - Questione Di Tempo -

...::: INFO :::...
Titolo originale:    Passpartù: Operazione Doppiozero
Conosciuto anche come:    
Nazione:    Italia
Anno:    2019
Genere:    Commedia
Durata:    90'
Regia:    Lucio Bastolla
Cast:    Giacomo Rizzo, Maurizio Mattioli, Veronica Maya, Yuliya Mayarchuk, Giacomo Battaglia, Gianni Parisi, Gianni Mauro
Produzione:    Prism
Distribuzione:    Conform
Data di uscita:    18 Luglio 2019 (cinema)

...::: TRAMA :::...
Nel tranquillo e piccolo borgo di Ceraso, il bando per la gestione di un albergo scatena una guerra senza esclusioni di colpi tra un gruppo di giovani del luogo e un imprenditore romano.

...::: SCREENSHOT :::...


...::: REPORT :::...
Spoiler: MostraHide
Format                      : Matroska
Format version              : Version 4
File size                   : 5.82 GiB
Duration                    : 1 h 32 min
Overall bit rate mode       : Constant
Overall bit rate            : 9 042 kb/s
Movie name                  : ODS
Encoded date                : UTC 2020-06-20 17:26:39
Writing application         : mkvmerge v47.0.0 ('Black Flag') 64-bit
Writing library             : libebml v1.3.10 + libmatroska v1.5.2

Video
ID                          : 1
Format                      : AVC
Format/Info                 : Advanced Video Codec
Format profile              : High@L4
Format settings             : CABAC / 4 Ref Frames
Format settings, CABAC      : Yes
Format settings, Reference  : 4 frames
Format settings, GOP        : M=3, N=30
Codec ID                    : V_MPEG4/ISO/AVC
Duration                    : 1 h 32 min
Bit rate mode               : Constant
Bit rate                    : 8 749 kb/s
Width                       : 1 920 pixels
Height                      : 796 pixels
Display aspect ratio        : 2.40:1
Frame rate mode             : Constant
Frame rate                  : 29.970 (30000/1001) FPS
Color space                 : YUV
Chroma subsampling          : 4:2:0
Bit depth                   : 8 bits
Scan type                   : Progressive
Bits/(Pixel*Frame)          : 0.191
Stream size                 : 5.53 GiB (95%)
Default                     : Yes
Forced                      : No
Color range                 : Limited
Color primaries             : BT.709
Transfer characteristics    : BT.709
Matrix coefficients         : BT.709

Audio
ID                          : 2
Format                      : AC-3
Format/Info                 : Audio Coding 3
Commercial name             : Dolby Digital
Codec ID                    : A_AC3
Duration                    : 1 h 32 min
Bit rate mode               : Constant
Bit rate                    : 448 kb/s
Channel(s)                  : 6 channels
Channel layout              : L R C LFE Ls Rs
Sampling rate               : 48.0 kHz
Frame rate                  : 31.250 FPS (1536 SPF)
Compression mode            : Lossy
Stream size                 : 295 MiB (5%)
Title                       : ITA
Language                    : Italian
Service kind                : Complete Main
Default                     : Yes
Forced                      : Yes



...::: DOWNLOAD :::...
se vuoi replicare e/o esportare una mia release puoi farlo inserendo nei ringraziamenti il nome: oDySSey - ODS
PASSWORD [:0-0:]
Non Vuoi aspettare? Vuoi subito il file? clicca qua
Contenuto nascosto:
  • Per effettuare il download devi essere registrato
    Se lo sei già, accedi e clicca sul tasto Ringrazia in alto a destra del post

« Ultima modifica: Giugno 20, 2020, 10:26:01 pm da TiME »
NO supporto tramite PM
Se apprezzi le mie release clicca il tasto sotto il mio avatar
PER LE MIE COLLEZIONI CLICCA  QUI 
RESTA AGGIORNATO PER OGNI NUOVO DOWNLOAD NEL CANALE TELEGRAM
click here --> <-- click here
 
Utenti che hanno ringraziato per il post: gbona, downshare, raff63, ghego69, morphy, maurizio Fontana, Brunoio, paio62, iddy, baretta14, orizzonta, giulio ferrara, Marzio, Beeps1998, Aldoconte, Salvatore Alibrando, Comario, blapasen, iltronodelre, gravin, calimero#70, mario18286, al.ri@@io, amed1953, kkroove, toky77, cicciopasticcio, sirdina, mandaste, Enzo, IL boa, jetore60, alexius1989, mrc, luachi, darkcity, scooby23, churro, antozanto, aieiebrazo, jupiter, klaid9999, TEX, interista, HitMike, frassicanino, Marcellona, gigiozz, sbirulino, Danielemdj, rmulazz, tripleics2, branche, Cottarelli marco, DATA70, biker82, dosmarones, Raset, Tony, ricciolo, bifrazio, mordred, pino71, cyclopes, pablopablo, yurma, Diegone69, magutt, elevation1, capilo2, ALESSANDRO, ezio54, reny2112, dark350, etty81, mrbass, watamu, solari77, luca20100, dadek, hal2008, sira, Roberto Lattanzio, roto, yumaxgera, Cartoons, mario2020, danfex63, fansp2p, pedrilde, Jag80blu, gianni, alexdelpiero84, marconass, P1n01966, sfizio71, giuseppe28859, 5762, stefanorgb, packyoblues, diogreco, pako, donald59, babanettu, lucaderosa811@gmail.com, johnwick, lapa, spiderpork01, Boy Joe, Tsunami69, annitos, toroseduto23, mescpu, franz895, niglio2002, francavilla13, mimmolf, dreembooy, FRANZ, superrecio, adryant, giagal23, Federica -non ho, glucapg, pincuspincus, Magico9999, artemela, marcolino, pnoci, trepid65, liboriuccio, melmike, zoduwe, Avatar, phobos90, francuccio, dvd58, aspireap, brumpippo, pierobaldo, mauri, nico, umberto, ellesse, Utnapishtim, fbeqaraj, gokalex, baffotto, cam005, Quinto, Alkimya, unosandro, focus1999, lucignolo2020, koala king, pirloste, 08antonio, Emilio1966, attimax, deathwalker, Pierre961, oversim@gmail.com, salvo00786, zamiru, Flying_Disk, mascalat, alessio corradin, maripiam, konkillai, halley, ghostname67, bobprog, protexo, logan70, failax, birillo, santo, victor2312, nanni61, replay38, ludivico, cippolo1953, biagio, Franzisk, Duetris, filippo.bianchi, vandersarto, boardman, clarence, moso, pitirosso, Crucino, windowsremote, restip, xpgnnop, Issels, Anfepi, ubpizzoli, Panfilo, berserk90, acetone, ANTONIO ANGELICI, valerio, kkk1, claudio64, damtoto, MOTORONGO, vincent, Lore1968, Piscor, Marcello, Marco1234, alfio.vit, tempus tempus, viaveneto11, maddamato, anderson, gmc1949, AventadorRGT, giorgio, lupicca, doktor, Matrix23, burillo, rboss, SISIPHUS62, alambrista, marzia58, paoloskizz, robivi, niko1965, mastino64, magrax, zsteve20100, Adelkam, marino, toni901, polline70, huynhngoc, juancho68, CORALMISHA, rodari, Dasolo3000, saracarrino, pino, bracus, GAETANO SIGALINI, straniero81, ciuccia1989, Savy, vov, alessio393, hero182448, Administrator, cassiodoro, zucca74, ducatifan, dario53, ANTONIO007, matusalemme, giugno

Giugno 20, 2020, 10:16:28 pm
Risposta #1

TiME

  • Founder & Admin
  • Legend Member

  • Online
  • *
  • Founder of oDySSey Crew

  • 1854
  • Grazie ricevuti:
    920
  • Ringraziato: 42548 volte
  • Testo personale
    - Questione Di Tempo -
NO supporto tramite PM
Se apprezzi le mie release clicca il tasto sotto il mio avatar
PER LE MIE COLLEZIONI CLICCA  QUI 
RESTA AGGIORNATO PER OGNI NUOVO DOWNLOAD NEL CANALE TELEGRAM
click here --> <-- click here
 
Utenti che hanno ringraziato per il post: DATA70, magutt, victor2312, MOTORONGO, Piscor, saracarrino