News

  • - ULTIME NEWS ESCLUSIVE -
    [/url]

    DOWNLOAD DISPONIBILI

    CLICCA SULLA COPERTINA PER VEDERE IL POST

    Resta aggiornato per ogni download con telegram clicca qui
    Vota i nostri sondaggi clicca qua

Autore Topic: Feel The Beat (2020) [1080P]  (Letto 512 volte)

0 Utenti e 1 Visitatore stanno visualizzando questo topic.

Giugno 19, 2020, 03:55:29 pm
Letto 512 volte

CAP



Regia di Elissa Down.
Un film con Sofia Carson, Enrico Colantoni, Wolfgang Novogratz, Dennis Andres, Donna Lynne Champlin.
Genere Commedia -
USA, 2020,
durata 107 minuti.


Dopo aver rincorso inutilmente il successo a Broadway, la ballerina April (Sofia Carson) torna nella cittadina dove è nata e controvoglia accetta di preparare un gruppo mal assortito di giovani ballerini per un'importante competizione.




Spoiler: MostraHide
Format                      : Matroska
Format version              : Version 4
File size                   : 6.02 GiB
Duration                    : 1 h 49 min
Overall bit rate            : 7 838 kb/s
Encoded date                : UTC 2020-06-19 13:24:14
Writing application         : mkvmerge v47.0.0 ('Black Flag') 64-bit
Writing library             : libebml v1.3.10 + libmatroska v1.5.2

Video
ID                          : 1
Format                      : AVC
Format/Info                 : Advanced Video Codec
Format profile              : High@L4
Format settings             : CABAC / 4 Ref Frames
Format settings, CABAC      : Yes
Format settings, Reference  : 4 frames
Format settings, GOP        : M=3, N=24
Codec ID                    : V_MPEG4/ISO/AVC
Duration                    : 1 h 49 min
Bit rate mode               : Constant
Bit rate                    : 7 005 kb/s
Width                       : 1 920 pixels
Height                      : 800 pixels
Display aspect ratio        : 2.40:1
Frame rate mode             : Constant
Frame rate                  : 24.000 FPS
Color space                 : YUV
Chroma subsampling          : 4:2:0
Bit depth                   : 8 bits
Scan type                   : Progressive
Bits/(Pixel*Frame)          : 0.190
Stream size                 : 5.23 GiB (87%)
Default                     : Yes
Forced                      : No
Color range                 : Limited
Color primaries             : BT.709
Transfer characteristics    : BT.709
Matrix coefficients         : BT.709

Audio #1
ID                          : 2
Format                      : AC-3
Format/Info                 : Audio Coding 3
Commercial name             : Dolby Digital
Codec ID                    : A_AC3
Duration                    : 1 h 49 min
Bit rate mode               : Constant
Bit rate                    : 640 kb/s
Channel(s)                  : 6 channels
Channel layout              : L R C LFE Ls Rs
Sampling rate               : 48.0 kHz
Frame rate                  : 31.250 FPS (1536 SPF)
Compression mode            : Lossy
Stream size                 : 503 MiB (8%)
Language                    : Italian
Service kind                : Complete Main
Default                     : Yes
Forced                      : No

Audio #2
ID                          : 3
Format                      : AC-3
Format/Info                 : Audio Coding 3
Commercial name             : Dolby Digital
Codec ID                    : A_AC3
Duration                    : 1 h 49 min
Bit rate mode               : Constant
Bit rate                    : 384 kb/s
Channel(s)                  : 6 channels
Channel layout              : L R C LFE Ls Rs
Sampling rate               : 48.0 kHz
Frame rate                  : 31.250 FPS (1536 SPF)
Compression mode            : Lossy
Stream size                 : 302 MiB (5%)
Language                    : English
Service kind                : Complete Main
Default                     : No
Forced                      : No

Text #1
ID                          : 4
Format                      : UTF-8
Codec ID                    : S_TEXT/UTF8
Codec ID/Info               : UTF-8 Plain Text
Duration                    : 1 h 46 min
Bit rate                    : 83 b/s
Count of elements           : 2061
Stream size                 : 64.7 KiB (0%)
Language                    : English
Default                     : No
Forced                      : No

Text #2
ID                          : 5
Format                      : UTF-8
Codec ID                    : S_TEXT/UTF8
Codec ID/Info               : UTF-8 Plain Text
Duration                    : 1 h 46 min
Bit rate                    : 50 b/s
Count of elements           : 1546
Stream size                 : 39.9 KiB (0%)
Language                    : Italian
Default                     : No
Forced                      : No

Text #3
ID                          : 6
Format                      : UTF-8
Codec ID                    : S_TEXT/UTF8
Codec ID/Info               : UTF-8 Plain Text
Duration                    : 1 h 46 min
Bit rate                    : 1 b/s
Count of elements           : 46
Stream size                 : 1.06 KiB (0%)
Title                       : FORCED ITA
Language                    : Italian
Default                     : Yes
Forced                      : Yes



Contenuto nascosto:
  • Per effettuare il download devi essere registrato
    Se lo sei già, accedi e clicca sul tasto Ringrazia in alto a destra del post