News

  • - ULTIME NEWS ESCLUSIVE -

    DOWNLOAD DISPONIBILI

    CLICCA SULLA COPERTINA PER VEDERE IL POST

    Resta aggiornato per ogni download con telegram clicca qui
    Vota i nostri sondaggi clicca qua

Autore Topic: Wasp Network (2020) [1080P]  (Letto 654 volte)

0 Utenti e 1 Visitatore stanno visualizzando questo topic.

Giugno 19, 2020, 02:38:49 pm
Letto 654 volte

CAP



Titolo originale: Titolo originale: Wasp Network
Nazione: Brasile, Francia, Spagna, Belgio
Anno: 2020
Genere: Thriller
Durata: 123
Regia: Olivier Assayas
Cast: Penélope Cruz, Edgar Ramirez, Gael Garcia Bernal, Wagner Moura, Ana de Armas, Leonardo Sbaraglia, Julian Flynn


La Guerra fredda sta volgendo a termine, quando René González (Edgar Ramírez), pilota di linea, decide di appropriarsi di uno degli aerei con cui lavora per fuggire da Cuba, dove abbandona la moglie e la figlia.Giunge in Florida e si trasferisce a Miami, lasciandosi alle spalle la sua vita precedente. Qui González conosce altri quattro ribelli come lui di origine cubana e insieme mettono su un gruppo intenzionato ad abbattere il governo di Fidel Castro con una serie di attacchi militari. Nonostante si sentano al sicuro a esprimere il loro anticastrismo negli USA, i cinque dissidenti dovranno far fronte alle spionaggio cubano, volto a stanare tutte le cellule contrarie al regime.




Spoiler: MostraHide
Format                      : Matroska
Format version              : Version 4
File size                   : 8.49 GiB
Duration                    : 2 h 8 min
Overall bit rate            : 9 491 kb/s
Encoded date                : UTC 2020-06-19 11:37:41
Writing application         : mkvmerge v47.0.0 ('Black Flag') 64-bit
Writing library             : libebml v1.3.10 + libmatroska v1.5.2

Video
ID                          : 1
Format                      : AVC
Format/Info                 : Advanced Video Codec
Format profile              : High@L4
Format settings             : CABAC / 4 Ref Frames
Format settings, CABAC      : Yes
Format settings, Reference  : 4 frames
Format settings, GOP        : M=3, N=24
Codec ID                    : V_MPEG4/ISO/AVC
Duration                    : 2 h 8 min
Bit rate mode               : Constant
Bit rate                    : 8 610 kb/s
Width                       : 1 920 pixels
Height                      : 800 pixels
Display aspect ratio        : 2.40:1
Frame rate mode             : Constant
Frame rate                  : 24.000 FPS
Color space                 : YUV
Chroma subsampling          : 4:2:0
Bit depth                   : 8 bits
Scan type                   : Progressive
Bits/(Pixel*Frame)          : 0.234
Stream size                 : 7.51 GiB (89%)
Default                     : Yes
Forced                      : No
Color range                 : Limited
Color primaries             : BT.709
Transfer characteristics    : BT.709
Matrix coefficients         : BT.709

Audio #1
ID                          : 2
Format                      : AC-3
Format/Info                 : Audio Coding 3
Commercial name             : Dolby Digital
Codec ID                    : A_AC3
Duration                    : 2 h 8 min
Bit rate mode               : Constant
Bit rate                    : 448 kb/s
Channel(s)                  : 6 channels
Channel layout              : L R C LFE Ls Rs
Sampling rate               : 48.0 kHz
Frame rate                  : 31.250 FPS (1536 SPF)
Compression mode            : Lossy
Stream size                 : 410 MiB (5%)
Language                    : Italian
Service kind                : Complete Main
Default                     : Yes
Forced                      : No

Audio #2
ID                          : 5
Format                      : E-AC-3
Format/Info                 : Enhanced AC-3
Commercial name             : Dolby Digital Plus
Codec ID                    : A_EAC3
Duration                    : 2 h 8 min
Bit rate mode               : Constant
Bit rate                    : 640 kb/s
Channel(s)                  : 6 channels
Channel layout              : L R C LFE Ls Rs
Sampling rate               : 48.0 kHz
Frame rate                  : 31.250 FPS (1536 SPF)
Compression mode            : Lossy
Stream size                 : 586 MiB (7%)
Title                       : English
Language                    : English
Service kind                : Complete Main
Default                     : No
Forced                      : No

Text #1
ID                          : 3
Format                      : UTF-8
Codec ID                    : S_TEXT/UTF8
Codec ID/Info               : UTF-8 Plain Text
Duration                    : 2 h 6 min
Bit rate                    : 5 b/s
Count of elements           : 104
Stream size                 : 4.69 KiB (0%)
Title                       : FORCED iTA
Language                    : Italian
Default                     : Yes
Forced                      : Yes

Text #2
ID                          : 4
Format                      : UTF-8
Codec ID                    : S_TEXT/UTF8
Codec ID/Info               : UTF-8 Plain Text
Duration                    : 2 h 6 min
Bit rate                    : 51 b/s
Count of elements           : 1610
Stream size                 : 47.5 KiB (0%)
Title                       : REGULAR iTA
Language                    : Italian
Default                     : No
Forced                      : No


Contenuto nascosto:
  • Per effettuare il download devi essere registrato
    Se lo sei già, accedi e clicca sul tasto Ringrazia in alto a destra del post