News

  • - ULTIME NEWS ESCLUSIVE -
    [/url]

    DOWNLOAD DISPONIBILI

    CLICCA SULLA COPERTINA PER VEDERE IL POST

    Resta aggiornato per ogni download con telegram clicca qui
    Vota i nostri sondaggi clicca qua

Autore Topic: Proiettile Vagante (2020) [1080P]  (Letto 730 volte)

0 Utenti e 2 Visitatori stanno visualizzando questo topic.

Giugno 19, 2020, 01:06:12 pm
Letto 730 volte

CAP



Titolo originale: Wasp Network
Nazione: Francia
Anno: 2020
Genere: Thriller
Durata: 92
Regia: Guillaume Pierret


Proiettile vagante, film diretto da Guillaume Pierret, racconta la spericolata avventura di Lino (Alban Lenoir), un vero genio della meccanica, tanto che nessuno sa elaborare e modificare le automobili come lui. Quando il meccanico, però, viene arrestato per una rapina andata a male, il capo dell'unità speciale di polizia gli offre un'opportunità per redimere la sua fedina penale: aiutare un team di poliziotti piloti, mettendo a disposizione le sue conoscenze e in cambio evitare la prigione. Accettato il patto, Lino inizia a collaborare con gli agenti, creando per loro una task-force di auto velocissime.




Spoiler: MostraHide
Video
ID                          : 3
Format                      : AVC
Format/Info                 : Advanced Video Codec
Format profile              : High@L4
Format settings             : CABAC / 4 Ref Frames
Format settings, CABAC      : Yes
Format settings, Reference  : 4 frames
Format settings, GOP        : M=3, N=24
Codec ID                    : V_MPEG4/ISO/AVC
Duration                    : 1 h 33 min
Bit rate mode               : Constant
Bit rate                    : 8 655 kb/s
Width                       : 1 920 pixels
Height                      : 800 pixels
Display aspect ratio        : 2.40:1
Frame rate mode             : Constant
Frame rate                  : 23.976 (24000/1001) FPS
Color space                 : YUV
Chroma subsampling          : 4:2:0
Bit depth                   : 8 bits
Scan type                   : Progressive
Bits/(Pixel*Frame)          : 0.235
Stream size                 : 5.40 GiB (87%)
Default                     : Yes
Forced                      : No
Color range                 : Limited
Color primaries             : BT.709
Transfer characteristics    : BT.709
Matrix coefficients         : BT.709

Audio #1
ID                          : 1
Format                      : E-AC-3
Format/Info                 : Enhanced AC-3
Commercial name             : Dolby Digital Plus
Codec ID                    : A_EAC3
Duration                    : 1 h 33 min
Bit rate mode               : Constant
Bit rate                    : 640 kb/s
Channel(s)                  : 6 channels
Channel layout              : L R C LFE Ls Rs
Sampling rate               : 48.0 kHz
Frame rate                  : 31.250 FPS (1536 SPF)
Compression mode            : Lossy
Stream size                 : 426 MiB (7%)
Title                       : French
Language                    : French
Service kind                : Complete Main
Default                     : No
Forced                      : No

Audio #2
ID                          : 4
Format                      : AC-3
Format/Info                 : Audio Coding 3
Commercial name             : Dolby Digital
Codec ID                    : A_AC3
Duration                    : 1 h 33 min
Bit rate mode               : Constant
Bit rate                    : 640 kb/s
Channel(s)                  : 6 channels
Channel layout              : L R C LFE Ls Rs
Sampling rate               : 48.0 kHz
Frame rate                  : 31.250 FPS (1536 SPF)
Compression mode            : Lossy
Stream size                 : 426 MiB (7%)
Language                    : Italian
Service kind                : Complete Main
Default                     : Yes
Forced                      : No

Text
ID                          : 2
Format                      : UTF-8
Codec ID                    : S_TEXT/UTF8
Codec ID/Info               : UTF-8 Plain Text
Duration                    : 1 h 31 min
Bit rate                    : 0 b/s
Count of elements           : 7
Stream size                 : 85.0 Bytes (0%)
Title                       : FORCED ITA
Language                    : Italian
Default                     : Yes
Forced                      : Yes


Contenuto nascosto:
  • Per effettuare il download devi essere registrato
    Se lo sei già, accedi e clicca sul tasto Ringrazia in alto a destra del post
« Ultima modifica: Giugno 21, 2020, 09:48:42 pm da TiME »


RESTA AGGIORNATO PER OGNI DOWNLOAD NUOVO NEL CANALE TELEGRAM
click here --> <-- click here
 
Utenti che hanno ringraziato per il post: morphy, Brunoio, stalker95, orizzonta, Francesco, Enzuccio79, franco vinci, teoz, Aldoconte, blapasen, Delta10, mike_48, mandaste, jighen, IL boa, mrc, fab260967, elnestri, luachi, pyuio, perlina1980, kalos, beccaluva antonio, aieiebrazo, Marina, max64, 79mluca, malisia, rmulazz, OronzoMan, giomar2, Giovanni Zandron, albatro0370, mordred, pino71, ulisse, ALESSANDRO, blink74, reny2112, dark350, alphac3nthaur1, Roberto Lattanzio, Turk, salvadog1947, shogun868, due di picche, fansp2p, Luzaraz, Jag80blu, ciopi64, pigiama, antonyda, gianni, Mariuso, P1n01966, philpaper, Kultvideo, kaine71, fefetattoo, frank1970, pako, nspolao52, Boy Joe, bobo, giggi96, pisofasa, LUCIANO BARBAZZA, leohowie, pincuspincus, marcolino, Bardo50X, melmike, dvd58, brumpippo, nico, gokalex, Ace3, NickMF, focus1999, TrOjAnxxx, log4n1, 08antonio, TopSport, Cometa3, darkwing, salvemini, gianas, diego tosi, imperatore28, ama, Omenat, failax, redmaxone, stanich, PAKITO1959, churaks, clarence, mauro carpanese, Fabio 62, paolino88, restip, m4tt3x, amedeo pariante, xpgnnop, Issels, ubpizzoli, Panfilo, phate_58, postino, acetone, damtoto, MOTORONGO, costan, magre1963, alfio.vit, tempus tempus, viaveneto11, saxofono, dratta, Matrix23, etarade, rboss, paoloskizz, mastino64, Adelkam, toni901, CORALMISHA, Baldazzotto2020, torakiki2020, robysev, saracarrino, AKULA1955, GAETANO SIGALINI, H4rtik, reg1nald0, vov, zazzorf, poeta111, Rita Stallone, Tiritiritrullallero, aleardo, pivo78