News

  • - ULTIME NEWS ESCLUSIVE -

    DOWNLOAD DISPONIBILI

    CLICCA SULLA COPERTINA PER VEDERE IL POST

    Resta aggiornato per ogni download con telegram clicca qui
    Vota i nostri sondaggi clicca qua

Autore Topic: Lontano Lontano (2020) [1080P]  (Letto 892 volte)

0 Utenti e 1 Visitatore stanno visualizzando questo topic.

Giugno 18, 2020, 04:10:31 pm
Letto 892 volte

CAP




Regia di Gianni Di Gregorio.
Un film con Ennio Fantastichini, Giorgio Colangeli, Gianni Di Gregorio, Daphne Scoccia, Salih Saadin Khalid.
Genere Commedia, - Italia, 2019,
durata 90 minuti



TRAMA
Giorgetto e il professore sono amici da sempre. Tra un bicchiere di vino (bianco) e una passeggiata a Trastevere discutono della pensione che non basta mai e che probabilmente dovrebbero spendere altrove, in un paese straniero in cui la vita costi meno e il ritiro sia più dolce. A loro si aggiunge Attilio che una pensione non ce l'ha ma sopravvive restaurando mobili fuori porta. Dopo aver consultato un 'esperto' di pensioni statali all'estero, optano per le Azzorre. Stabilita una cassa comune e presa la prima lezione di portoghese, si preparano scrupolosamente per la partenza ma una variabile maggiore si impone e i nostri non andranno oltre Porta Settimiana.



Spoiler: MostraHide
Video
ID                          : 1
Format                      : AVC
Format/Info                 : Advanced Video Codec
Format profile              : Main@L4
Format settings             : CABAC / 1 Ref Frames
Format settings, CABAC      : Yes
Format settings, Reference  : 1 frame
Format settings, GOP        : M=1, N=30
Codec ID                    : V_MPEG4/ISO/AVC
Duration                    : 1 h 27 min
Bit rate mode               : Constant
Bit rate                    : 8 701 kb/s
Width                       : 1 920 pixels
Height                      : 1 080 pixels
Display aspect ratio        : 16:9
Frame rate mode             : Constant
Frame rate                  : 29.970 (29970/1000) FPS
Original frame rate         : 29.970 (30000/1001) FPS
Color space                 : YUV
Chroma subsampling          : 4:2:0
Bit depth                   : 8 bits
Scan type                   : Progressive
Bits/(Pixel*Frame)          : 0.140
Stream size                 : 5.15 GiB (95%)
Title                       : ODS
Language                    : Italian
Default                     : Yes
Forced                      : Yes

Audio
ID                          : 2
Format                      : AC-3
Format/Info                 : Audio Coding 3
Commercial name             : Dolby Digital
Codec ID                    : A_AC3
Duration                    : 1 h 27 min
Bit rate mode               : Constant
Bit rate                    : 448 kb/s
Channel(s)                  : 6 channels
Channel layout              : L R C LFE Ls Rs
Sampling rate               : 48.0 kHz
Frame rate                  : 31.250 FPS (1536 SPF)
Compression mode            : Lossy
Delay relative to video     : -5 ms
Stream size                 : 280 MiB (5%)
Title                       : ITA
Language                    : Italian
Service kind                : Complete Main
Default                     : Yes
Forced                      : Yes



Contenuto nascosto:
  • Per effettuare il download devi essere registrato
    Se lo sei già, accedi e clicca sul tasto Ringrazia in alto a destra del post
« Ultima modifica: Giugno 21, 2020, 09:48:36 pm da TiME »

RESTA AGGIORNATO PER OGNI DOWNLOAD NUOVO NEL CANALE TELEGRAM
click here --> <-- click here
 
Utenti che hanno ringraziato per il post: gbona, morphy, orizzonta, baldinho, Francesco, Enzuccio79, pinnila33, Aldoconte, blapasen, sirdina, IL boa, jetore60, elwood65, elnestri, andy48, beccaluva antonio, churro, Marina, klaid9999, max64, HitMike, sbirulino, marcoboemi, malisia, biker82, Giovanni Zandron, angelo64sgt, ricciolo, pablopablo, freejoint, fredry, elevation1, ALESSANDRO, ezio54, corebe, paride, etty81, watamu, vekkiaccio, hal2008, sira, Roberto Lattanzio, salvadog1947, yumaxgera, Cartoons, fansp2p, Sassola, ciopi64, Thesis71, perfidia474, philpaper, fefetattoo, packyoblues, pako, masterofroad, Albertaxs, babanettu, lucaderosa811@gmail.com, spiderpork01, extrainternet, polipo, bobo, giggi96, mimmolf, scegliancora, kazim2000, hendricks, aldoegio, Susan, adryant, giagal23, Gianni63, morena, Magico9999, artemela, marcolino, trepid65, melmike, Avatar, John.doa, dvd58, brumpippo, pierobaldo, ellesse, molocco, Utnapishtim, gokalex, Ace3, ripley, focus1999, 08antonio, Cometa3, deathwalker, papessa, Pierre961, Willy Marin, franco marri, tirem1970, imperatore28, franck73, Omenat, maripiam, konkillai, Mosmetto, francy22, logan70, failax, stanich, gia56, MarcoLamis, Stemino, Trapanosse, vandersarto, lukasthx, barnipardo, testina2020, clarence, josaz, mauro carpanese, fawozi, Maurizio@, windowsremote, Gill, xpgnnop, Anfepi, Panfilo, phate_58, Marco La Rovere, acetone, vincent, mariomario, Piscor, marietto, alfio.vit, viaveneto11, anderson, gmc1949, bighouse, miki, Biker66, tulse, dratta, Matrix23, margiaco, rboss, SISIPHUS62, fleh228, fedexx1, magrax, zsteve20100, marino, toni901, polline70, huynhngoc, rodari, saracarrino, [Sdrumo], pino, BRUNO DOMENICO, doriaandre, bracus, LuKa1999, GAETANO SIGALINI, ciuccia1989, principe1977, ric61, karl0, bellbell, cassiodoro, tiecaa