News

  • - ULTIME NEWS ESCLUSIVE -

    DOWNLOAD DISPONIBILI

    CLICCA SULLA COPERTINA PER VEDERE IL POST

    Resta aggiornato per ogni download con telegram clicca qui
    Vota i nostri sondaggi clicca qua

Autore Topic: 7500 (2019) [1080P]  (Letto 1014 volte)

0 Utenti e 1 Visitatore stanno visualizzando questo topic.

Giugno 18, 2020, 01:49:03 pm
Letto 1014 volte

CAP



7500

Lingua originale   inglese, tedesco, arabo, turco
Paese di produzione   Stati Uniti d'America, Germania, Austria
Anno   2019
Durata   92 min
Genere   drammatico, thriller
Regia   Patrick Vollrath

Interpreti e personaggi

Joseph Gordon-Levitt: Tobias Ellis
Omid Memar: Vedat
Aylin Tezel: Gökce
Carlo Kitzlinger: Michael Lutzmann

TRAMA
Alcuni attentatori entrano nella cabina di pilotaggio di un aereo rischiando il disastro.




Spoiler: MostraHide
Video
ID                          : 1
Format                      : AVC
Format/Info                 : Advanced Video Codec
Format profile              : High@L4
Format settings             : CABAC / 4 Ref Frames
Format settings, CABAC      : Yes
Format settings, Reference  : 4 frames
Format settings, GOP        : M=3, N=24
Codec ID                    : V_MPEG4/ISO/AVC
Duration                    : 1 h 33 min
Bit rate mode               : Constant
Bit rate                    : 12.5 Mb/s
Width                       : 1 920 pixels
Height                      : 804 pixels
Display aspect ratio        : 2.40:1
Frame rate mode             : Constant
Frame rate                  : 24.000 FPS
Color space                 : YUV
Chroma subsampling          : 4:2:0
Bit depth                   : 8 bits
Scan type                   : Progressive
Bits/(Pixel*Frame)          : 0.337
Stream size                 : 7.80 GiB (82%)
Default                     : Yes
Forced                      : No
Color range                 : Limited
Color primaries             : BT.709
Transfer characteristics    : BT.709
Matrix coefficients         : BT.709

Audio #1
ID                          : 2
Format                      : AC-3
Format/Info                 : Audio Coding 3
Commercial name             : Dolby Digital
Codec ID                    : A_AC3
Duration                    : 1 h 32 min
Bit rate mode               : Constant
Bit rate                    : 448 kb/s
Channel(s)                  : 6 channels
Channel layout              : L R C LFE Ls Rs
Sampling rate               : 48.0 kHz
Frame rate                  : 31.250 FPS (1536 SPF)
Compression mode            : Lossy
Stream size                 : 298 MiB (3%)
Language                    : Italian
Service kind                : Complete Main
Default                     : Yes
Forced                      : No

Audio #2
ID                          : 3
Format                      : DTS
Format/Info                 : Digital Theater Systems
Codec ID                    : A_DTS
Duration                    : 1 h 33 min
Bit rate mode               : Constant
Bit rate                    : 1 509 kb/s
Channel(s)                  : 6 channels
Channel layout              : C L R Ls Rs LFE
Sampling rate               : 48.0 kHz
Frame rate                  : 93.750 FPS (512 SPF)
Bit depth                   : 24 bits
Compression mode            : Lossy
Stream size                 : 1 005 MiB (10%)
Title                       : DTS ENG
Language                    : English
Default                     : No
Forced                      : No

Audio #3
ID                          : 4
Format                      : AC-3
Format/Info                 : Audio Coding 3
Commercial name             : Dolby Digital
Codec ID                    : A_AC3
Duration                    : 1 h 33 min
Bit rate mode               : Constant
Bit rate                    : 640 kb/s
Channel(s)                  : 6 channels
Channel layout              : L R C LFE Ls Rs
Sampling rate               : 48.0 kHz
Frame rate                  : 31.250 FPS (1536 SPF)
Compression mode            : Lossy
Stream size                 : 426 MiB (4%)
Title                       : AC3 ENG
Language                    : English
Service kind                : Complete Main
Default                     : No
Forced                      : No

Text #1
ID                          : 5
Format                      : UTF-8
Codec ID                    : S_TEXT/UTF8
Codec ID/Info               : UTF-8 Plain Text
Duration                    : 1 h 31 min
Bit rate                    : 47 b/s
Count of elements           : 1126
Stream size                 : 32.2 KiB (0%)
Title                       : FULL
Language                    : Italian
Default                     : No
Forced                      : No

Text #2
ID                          : 6
Format                      : UTF-8
Codec ID                    : S_TEXT/UTF8
Codec ID/Info               : UTF-8 Plain Text
Duration                    : 1 h 24 min
Bit rate                    : 16 b/s
Count of elements           : 357
Stream size                 : 10.4 KiB (0%)
Title                       : FORCED
Language                    : Italian
Default                     : Yes
Forced                      : Yes


Contenuto nascosto:
  • Per effettuare il download devi essere registrato
    Se lo sei già, accedi e clicca sul tasto Ringrazia in alto a destra del post
« Ultima modifica: Giugno 21, 2020, 09:48:30 pm da TiME »

RESTA AGGIORNATO PER OGNI DOWNLOAD NUOVO NEL CANALE TELEGRAM
click here --> <-- click here
 
Utenti che hanno ringraziato per il post: RR1, gbona, ghego69, morphy, maurizio Fontana, baretta14, orizzonta, Francesco, fabiotinx, Aldoconte, icehel, blapasen, m_lunasi, mike_48, dvd968, sirdina, xpeppex86, jetore60, perlina1980, piranha68, kalos, verycarlitos, sergissimo, Marina, interista, max64, sasabear, maurire, marcoboemi, OronzoMan, tripleics2, dosmarones, met5, VENOM, Frank19, filippogazzola, impiegato1973, ulisse, ghiro1993, croccone63, dark350, paride, etty81, barbos1986, canegatto, Rossa80, Roberto Lattanzio, Pir@tes_, mario2020, giovi, aldino, antonyda, P1n01966, perfidia474, stefanorgb, fefetattoo, diogreco, silverado, piter09, roby00, extrainternet, flyinmull, sarmego, chepalle1971, gimbo71, robicione, pushprachanda, massi, leohowie, morena, Magico9999, Chrono88, marcolino, trepid65, melmike, cosycla, phobos90, aspireap, brumpippo, nico, gokalex, Mariobrus, NickMF, cam005, ripley, Fulmine87, maurolupin, koala king, tra78, TrOjAnxxx, 08antonio, Pierre961, salvemini, tirem1970, gatto68, DAVID, gianas, kriss, diego tosi, juve4ever, inside1974, matrixxx10, ghostname67, edd1986, stanich, andre.fak, ali, Frant2183, PAKITO1959, MarcoLamis, five57ld, biagio, mattiaesse79, Duetris, satcorrado, clarence, carlo, Ciccio929292, alecracecar, ramos, Panfilo, berserk90, postino, guardiano64, Marco La Rovere, valerio, francescoven, kkk1, vincent, tappi, alfio.vit, gmc1949, serfar71, tulse, jean.sava, diaspron77, Matrix23, rboss, fabiox64, paoloskizz, JERICHO1972, iron84, peterpan1976, danyf81, lucasan63, pl21, Orazio1965, giodito, ProgTheater, zsteve20100, marmauco, labope5016, darkhdi, ramboso, Baldazzotto2020, BRUNO DOMENICO, Vignus, gipsilon, moghul55, Dean, H4rtik, BersaKing, titti titti