News

  • - ULTIME NEWS ESCLUSIVE -

    DOWNLOAD DISPONIBILI

    CLICCA SULLA COPERTINA PER VEDERE IL POST

    Resta aggiornato per ogni download con telegram clicca qui
    Vota i nostri sondaggi clicca qua

Autore Topic: Le Nostre Battaglie (2019) [1080P]  (Letto 6581 volte)

0 Utenti e 1 Visitatore stanno visualizzando questo topic.

Giugno 17, 2020, 04:13:58 pm
Letto 6581 volte

TiME

  • Founder & Admin
  • Legend Member

  • Offline
  • *
  • Founder of oDySSey Crew

  • 1862
  • Grazie ricevuti:
    926
  • Ringraziato: 42959 volte
  • Testo personale
    - Questione Di Tempo -

...::: INFO :::...
Titolo originale:    Nos batailles
Conosciuto anche come:    
Nazione:    Belgio, Francia
Anno:    2018
Genere:    Drammatico
Durata:    98'
Regia:    Guillaume Senez
Cast:    Romain Duris, Laure Calamy, Laetitia Dosch, Lucie Debay, Basile Grunberger, Lena Girard Voss, Dominique Valadié, Sarah Le Picard, Cédric Vieira
Produzione:    Iota Production, Les Films Pelléas
Distribuzione:    Parthénos
Data di uscita:    07 Febbraio 2019 (cinema)

...::: TRAMA :::...
Oliver è un uomo che dedica tutto se stesso alla lotta contro le ingiustizie al fianco dei propri compagni di lavoro. Quando, da un giorno all'altro, sua moglie Laura abbandona la loro casa, Oliver dovrà imparare a trovare un nuovo equilibrio tra i bisogni dei figli, le sfide della vita quotidiana e il suo lavoro.

...::: SCREENSHOT :::...


...::: REPORT :::...
Spoiler: MostraHide
Format                      : Matroska
Format version              : Version 4
File size                   : 8.03 GiB
Duration                    : 1 h 39 min
Overall bit rate mode       : Variable
Overall bit rate            : 11.5 Mb/s
Encoded date                : UTC 2020-06-17 12:39:52
Writing application         : mkvmerge v47.0.0 ('Black Flag') 64-bit
Writing library             : libebml v1.3.10 + libmatroska v1.5.2

Video
ID                          : 1
Format                      : AVC
Format/Info                 : Advanced Video Codec
Format profile              : High@L4
Format settings             : CABAC / 4 Ref Frames
Format settings, CABAC      : Yes
Format settings, Reference  : 4 frames
Format settings, GOP        : M=3, N=24
Codec ID                    : V_MPEG4/ISO/AVC
Duration                    : 1 h 39 min
Bit rate mode               : Constant
Bit rate                    : 8 000 kb/s
Width                       : 1 920 pixels
Height                      : 804 pixels
Display aspect ratio        : 2.40:1
Frame rate mode             : Constant
Frame rate                  : 24.000 FPS
Color space                 : YUV
Chroma subsampling          : 4:2:0
Bit depth                   : 8 bits
Scan type                   : Progressive
Bits/(Pixel*Frame)          : 0.216
Stream size                 : 5.48 GiB (68%)
Default                     : Yes
Forced                      : Yes
Color range                 : Limited
Color primaries             : BT.709
Transfer characteristics    : BT.709
Matrix coefficients         : BT.709

Audio #1
ID                          : 2
Format                      : AC-3
Format/Info                 : Audio Coding 3
Commercial name             : Dolby Digital
Codec ID                    : A_AC3
Duration                    : 1 h 38 min
Bit rate mode               : Constant
Bit rate                    : 640 kb/s
Channel(s)                  : 6 channels
Channel layout              : L R C LFE Ls Rs
Sampling rate               : 48.0 kHz
Frame rate                  : 31.250 FPS (1536 SPF)
Compression mode            : Lossy
Stream size                 : 453 MiB (6%)
Language                    : Italian
Service kind                : Complete Main
Default                     : No
Forced                      : No

Audio #2
ID                          : 3
Format                      : DTS XLL
Format/Info                 : Digital Theater Systems
Commercial name             : DTS-HD Master Audio
Codec ID                    : A_DTS
Duration                    : 1 h 38 min
Bit rate mode               : Variable
Bit rate                    : 2 398 kb/s
Channel(s)                  : 6 channels
Channel layout              : C L R Ls Rs LFE
Sampling rate               : 48.0 kHz
Frame rate                  : 93.750 FPS (512 SPF)
Bit depth                   : 16 bits
Compression mode            : Lossless
Stream size                 : 1.66 GiB (21%)
Title                       : ITA DTS
Language                    : Italian
Default                     : Yes
Forced                      : Yes

Audio #3
ID                          : 4
Format                      : AC-3
Format/Info                 : Audio Coding 3
Commercial name             : Dolby Digital
Codec ID                    : A_AC3
Duration                    : 1 h 38 min
Bit rate mode               : Constant
Bit rate                    : 640 kb/s
Channel(s)                  : 6 channels
Channel layout              : L R C LFE Ls Rs
Sampling rate               : 48.0 kHz
Frame rate                  : 31.250 FPS (1536 SPF)
Compression mode            : Lossy
Stream size                 : 453 MiB (6%)
Title                       : FRE AC3 640K
Language                    : French
Service kind                : Complete Main
Default                     : No
Forced                      : No

Text
ID                          : 5
Format                      : PGS
Muxing mode                 : zlib
Codec ID                    : S_HDMV/PGS
Codec ID/Info               : Picture based subtitle format used on BDs/HD-DVDs
Duration                    : 1 h 31 min
Bit rate                    : 29.6 kb/s
Count of elements           : 2038
Stream size                 : 19.5 MiB (0%)
Title                       : FULL ITA
Language                    : Italian
Default                     : No
Forced                      : No



...::: DOWNLOAD :::...
se vuoi replicare e/o esportare una mia release puoi farlo inserendo nei ringraziamenti il nome: oDySSey - ODS
PASSWORD
::N-o-S::

Non Vuoi aspettare? Vuoi subito il file? clicca qua
Contenuto nascosto:
  • Per effettuare il download devi essere registrato
    Se lo sei già, accedi e clicca sul tasto Ringrazia in alto a destra del post




Giugno 17, 2020, 04:41:39 pm
Risposta #1

marcoboemi

 
Utenti che hanno ringraziato per il post: DATA70, clarence, dratta

Giugno 19, 2020, 07:19:04 pm
Risposta #2

TiME

  • Founder & Admin
  • Legend Member

  • Offline
  • *
  • Founder of oDySSey Crew

  • 1862
  • Grazie ricevuti:
    926
  • Ringraziato: 42959 volte
  • Testo personale
    - Questione Di Tempo -
NO supporto tramite PM
Se apprezzi le mie release clicca il tasto sotto il mio avatar
PER LE MIE COLLEZIONI CLICCA  QUI 
RESTA AGGIORNATO PER OGNI NUOVO DOWNLOAD NEL CANALE TELEGRAM
click here --> <-- click here
 
Utenti che hanno ringraziato per il post: DATA70

Giugno 23, 2020, 06:36:14 pm
Risposta #3

rapidshare75

  • Newbie Member

  • Offline
  • *

  • 2
  • Grazie ricevuti:
    0