News

  • - ULTIME NEWS ESCLUSIVE -

    DOWNLOAD DISPONIBILI

    CLICCA SULLA COPERTINA PER VEDERE IL POST

    Resta aggiornato per ogni download con telegram clicca qui
    Vota i nostri sondaggi clicca qua

Autore Topic: Abbi Fede (2020) [1080P]  (Letto 640 volte)

0 Utenti e 1 Visitatore stanno visualizzando questo topic.

Giugno 14, 2020, 10:36:27 pm
Letto 640 volte

CAP



DATA DI USCITA ITA: 11/06/2020 (RaiPlay)
GENERE: Drammatico
NAZIONE: Italia - 2020
FORMATO: Colore
DURATA: N.d.
PRODUZIONE: Cannizzo Produzioni, Greif Produktion, Sigma Film, Cineworld Roma, Dinamo Film, Rai Cinema, IDM Film Fund (con il sostegno di), Commission dell'Alto Adige (con il sostegno di)
SOGGETTO:
Il film si ispira al lungometraggio danese Le mele di Adamo ('Adams æbler') di Anders Thomas Jensen.
IN HOMEVIDEO: in Digitale da Giovedì 11 Giugno 2020

TRAMA
Ivan (Giorgio Pasotti) è un sacerdote con una fortissima fede in Dio e nell'uomo. La sua incrollabile convinzione sarà, però, messa alla prova dall'arrivo di Adamo (Claudio Amendola), un neofascista assegnato alla sua comunità di recupero. La preparazione di uno strüdel di mele diventerà l'occasione per un teso braccio di ferro tra una visione positiva e una negativa del mondo, il tutto accompagnato dallo sguardo allucinato degli altri membri della comunità: lo sciatore alcolizzato Gustav (Robert Palfrader), la problematica Sara (Gerti Drassl) e l'ex-terrorista Khalid (Aram Kian).

Una commedia dolceamara, che riflette sulla necessità tutta umana di conservare sempre e comunque la speranza.

Spoiler: MostraHide
Video
ID                          : 1
Format                      : AVC
Format/Info                 : Advanced Video Codec
Format profile              : High@L4.1
Format settings             : CABAC / 4 Ref Frames
Format settings, CABAC      : Yes
Format settings, Reference  : 4 frames
Format settings, GOP        : M=3, N=30
Codec ID                    : V_MPEG4/ISO/AVC
Duration                    : 1 h 33 min
Bit rate mode               : Constant
Bit rate                    : 2 036 kb/s
Width                       : 704 pixels
Height                      : 288 pixels
Display aspect ratio        : 2.40:1
Frame rate mode             : Constant
Frame rate                  : 29.970 (30000/1001) FPS
Color space                 : YUV
Chroma subsampling          : 4:2:0
Bit depth                   : 8 bits
Scan type                   : Progressive
Bits/(Pixel*Frame)          : 0.335
Stream size                 : 1.30 GiB (84%)
Default                     : Yes
Forced                      : No
Color range                 : Limited
Color primaries             : BT.709
Transfer characteristics    : BT.709
Matrix coefficients         : BT.709

Audio
ID                          : 2
Format                      : AC-3
Format/Info                 : Audio Coding 3
Commercial name             : Dolby Digital
Codec ID                    : A_AC3
Duration                    : 1 h 33 min
Bit rate mode               : Constant
Bit rate                    : 384 kb/s
Channel(s)                  : 6 channels
Channel layout              : L R C LFE Ls Rs
Sampling rate               : 48.0 kHz
Frame rate                  : 31.250 FPS (1536 SPF)
Bit depth                   : 16 bits
Compression mode            : Lossy
Stream size                 : 257 MiB (16%)
Language                    : Italian
Service kind                : Complete Main
Default                     : Yes
Forced                      : No





Contenuto nascosto:
  • Per effettuare il download devi essere registrato
    Se lo sei già, accedi e clicca sul tasto Ringrazia in alto a destra del post